Текст песни Gipsy Kings - The Best Of The Gipsy Kings

Исполнитель: Gipsy Kings
FILE "Gipsy Kings - The Best Of The Gipsy Kings.ape" WAVE
TRACK 01 AUDIO
TITLE "Djobi, Djoba"
PERFORMER "Gipsy Kings"
INDEX 00 00:00:00
INDEX 01 00:00:32
TRACK 02 AUDIO
TITLE "Viento Del Arena"
PERFORMER "Gipsy Kings"
INDEX 00 03:24:62
INDEX 01 03:25:05
TRACK 03 AUDIO
TITLE "Baila Me"
PERFORMER "Gipsy Kings"
INDEX 00 08:53:12
INDEX 01 08:54:32
TRACK 04 AUDIO
TITLE "Un Amor"
PERFORMER "Gipsy Kings"
INDEX 00 12:40:00
INDEX 01 12:40:20
TRACK 05 AUDIO
TITLE "Moorea"
PERFORMER "Gipsy Kings"
INDEX 00 16:18:02
INDEX 01 16:18:25
TRACK 06 AUDIO
TITLE "Volare"
PERFORMER "Gipsy Kings"
INDEX 00 20:19:60
INDEX 01 20:20:10
TRACK 07 AUDIO
TITLE "Quiero Saber"
PERFORMER "Gipsy Kings"
INDEX 00 23:58:72
INDEX 01 24:00:42
TRACK 08 AUDIO
TITLE "Escucha Me"
PERFORMER "Gipsy Kings"
INDEX 00 28:07:05
INDEX 01 28:08:42
TRACK 09 AUDIO
TITLE "La Dona"
PERFORMER "Gipsy Kings"
INDEX 00 32:11:42
INDEX 01 32:11:47
TRACK 10 AUDIO
TITLE "Montana"
PERFORMER "Gipsy Kings"
INDEX 00 36:57:15
INDEX 01 36:57:52
TRACK 11 AUDIO
TITLE "Bem, Bem, Maria"
PERFORMER "Gipsy Kings"
INDEX 00 42:19:60
INDEX 01 42:21:10
TRACK 12 AUDIO
TITLE "Trista Pena"
PERFORMER "Gipsy Kings"
INDEX 00 45:24:72
INDEX 01 45:26:07
TRACK 13 AUDIO
TITLE "Bamboleo"
PERFORMER "Gipsy Kings"
INDEX 00 49:58:28
INDEX 01 49:59:30
TRACK 14 AUDIO
TITLE "Galaxia"
PERFORMER "Gipsy Kings"
INDEX 00 53:23:20
INDEX 01 53:23:52
TRACK 15 AUDIO
TITLE "Vamos A Bailar"
PERFORMER "Gipsy Kings"
INDEX 01 56:09:25
TRACK 16 AUDIO
TITLE "Love & Liberte"
PERFORMER "Gipsy Kings"
INDEX 00 61:13:00
INDEX 01 61:13:05
TRACK 17 AUDIO
TITLE "A Tu Vera"
PERFORMER "Gipsy Kings"
INDEX 00 65:07:42
INDEX 01 65:08:17
TRACK 18 AUDIO
TITLE "(Bonus Track) Medley:"
PERFORMER "Gipsy Kings"
INDEX 00 68:25:67
INDEX 01 68:30:42

Другие песни этого исполнителя




Copyright © 2016-2021, "Тексты песен"

Обратная связь

Права на тексты песен, а также их переводы принадлежат их авторам. Все тексты и их переводы представлены исключительно для ознакомления.